<?xml version="1.0" standalone="no"?>
<!DOCTYPE svg PUBLIC "-//W3C//DTD SVG 1.1//EN" "http://www.w3.org/Graphics/SVG/1.1/DTD/svg11.dtd" >
<svg xmlns="http://www.w3.org/2000/svg" xmlns:xlink="http://www.w3.org/1999/xlink" version="1.1">
<metadata></metadata>
<defs>
<font id="lunchtype24expanded_medium" horiz-adv-x="1310" >
<font-face units-per-em="2048" ascent="1536" descent="-512" />
<missing-glyph horiz-adv-x="688" />
<glyph horiz-adv-x="0" />
<glyph unicode="&#xd;" horiz-adv-x="681" />
<glyph unicode=" "  horiz-adv-x="688" />
<glyph unicode="&#x09;" horiz-adv-x="688" />
<glyph unicode="&#xa0;" horiz-adv-x="688" />
<glyph unicode="!" horiz-adv-x="583" d="M201 0v262h305v-262h-305zM205 1049v370h299v-370l-39 -615h-221z" />
<glyph unicode="&#x22;" horiz-adv-x="864" d="M66 1202v240h284v-240l-33 -293h-221zM514 1202v240h285v-240l-31 -293h-223z" />
<glyph unicode="#" horiz-adv-x="1638" d="M113 389v197h272l47 219h-258v205h305l94 432h244l-92 -432h315l93 432h247l-94 -432h240v-205h-279l-47 -219h230v-197h-271l-76 -389h-254l82 389h-321l-84 -389h-248l82 389h-227zM631 586h321l49 219h-321z" />
<glyph unicode="$" horiz-adv-x="1419" d="M35 428l295 -2q20 -86 76.5 -141.5t154.5 -67.5v428l-33 6q-205 41 -318.5 132t-113.5 266q0 86 34 152.5t94.5 115.5t146.5 78.5t190 40.5v116h260v-118q223 -29 339 -134.5t118 -273.5h-277q-16 78 -66 128t-114 60v-376q109 -23 198 -54.5t153.5 -81t99.5 -121 t35 -173.5q0 -96 -37 -170t-102.5 -126.5t-153.5 -84t-193 -41.5v-123h-260v123q-106 8 -201.5 39.5t-168 86t-114.5 133.5t-42 183zM373 1055q0 -63 45 -104.5t143 -61.5v328q-96 -6 -142 -54.5t-46 -107.5zM821 217q92 4 145.5 57t53.5 125q0 86 -54.5 127t-144.5 64v-373 z" />
<glyph unicode="%" horiz-adv-x="1939" d="M106 1067q0 66 15.5 131.5t54.5 117.5t104.5 84t163.5 32t163 -33t103 -86t52 -119t14 -133q0 -403 -332 -404q-166 0 -252 99.5t-86 310.5zM322 1059q0 -31 4 -69t17 -70.5t36.5 -54t64.5 -21.5q39 0 61.5 21.5t35 54t15.5 70.5t3 69q0 29 -4 62.5t-16.5 61t-35 46 t-59.5 18.5q-41 0 -64.5 -18.5t-36.5 -46t-17 -61t-4 -62.5zM377 -8l1028 1528l213 -90l-1028 -1534zM1235 395q0 66 15.5 131.5t54 117.5t104.5 84t164 32t162.5 -33t102.5 -86t52.5 -118.5t14.5 -133.5q0 -205 -84 -304t-248 -99q-166 0 -252 99t-86 310zM1450 387 q0 -31 4 -68.5t17.5 -70.5t37 -54.5t64.5 -21.5q39 0 61.5 21.5t34.5 54.5t15.5 70.5t3.5 68.5q0 29 -5.5 62.5t-17.5 61.5t-34.5 46t-57.5 18q-41 0 -64.5 -18t-37 -46t-17.5 -61.5t-4 -62.5z" />
<glyph unicode="&#x26;" horiz-adv-x="1460" d="M137 418q0 70 22.5 126t62.5 101t93.5 80t114.5 63q-29 35 -50.5 65t-34.5 59.5t-20.5 63.5t-7.5 77q0 158 121 241.5t324 83.5q80 0 151.5 -18.5t124 -56t83 -94t30.5 -132.5q0 -68 -18.5 -117t-58.5 -87.5t-102.5 -73.5t-150.5 -78l275 -311q16 16 25 43.5t14.5 58.5 t6.5 60.5t1 52.5h207q-2 -94 -26 -193.5t-77 -179.5q39 -31 75 -54.5t73 -23.5q14 0 32.5 1t34.5 5q18 4 37 8v-176q-45 -6 -71.5 -9t-53.5 -3q-111 0 -174 33t-110 76q-84 -55 -170 -82t-197 -27q-121 0 -227.5 24.5t-186.5 77t-126 130t-46 186.5zM401 414q0 -53 28 -93 t74 -68t103.5 -42t116.5 -14q55 0 113.5 19.5t105.5 49.5l-362 377q-74 -35 -126.5 -90t-52.5 -139zM563 1057q0 -53 26.5 -90t76.5 -88q43 18 88 39.5t80.5 45t59.5 48t24 53.5q0 53 -45.5 84t-124.5 31q-80 0 -132.5 -32t-52.5 -91z" />
<glyph unicode="'" horiz-adv-x="800" d="M258 1225v219h285v-219l-33 -314h-221z" />
<glyph unicode="(" horiz-adv-x="907" d="M172 584q0 131 34 260t96.5 249.5t149.5 231.5t191 209l170 -111q-80 -88 -147.5 -188t-115.5 -207.5t-76 -220.5t-28 -225q0 -113 28 -223.5t76 -215t115.5 -204t147.5 -187.5l-170 -106q-104 96 -191 205.5t-149.5 228.5t-96.5 245t-34 259z" />
<glyph unicode=")" horiz-adv-x="835" d="M94 -248q80 88 147.5 187.5t117 204t76 215t26.5 223.5t-26.5 225.5t-76 220t-117 207.5t-147.5 188l170 111q104 -98 191.5 -209t150 -231.5t97 -249.5t34.5 -260q0 -133 -34.5 -259t-97 -245t-149.5 -228.5t-192 -205.5z" />
<glyph unicode="*" horiz-adv-x="1120" d="M70 901l282 107l-282 112l135 185l260 -150l-39 264h264l-39 -264l264 150l136 -185l-289 -110l289 -111l-136 -184l-264 149l39 -264h-264l41 262l-264 -149z" />
<glyph unicode="+" horiz-adv-x="1253" d="M96 522v215h400v318h264v-318h397v-215h-397v-323h-264v323h-400z" />
<glyph unicode="," horiz-adv-x="727" d="M201 0v270h325v-237l-90 -250h-211l51 217h-75z" />
<glyph unicode="-" horiz-adv-x="972" d="M131 485v213h711v-213h-711z" />
<glyph unicode="." horiz-adv-x="724" d="M201 0v270h323v-270h-323z" />
<glyph unicode="/" horiz-adv-x="1040" d="M-16 -360l811 1914h258l-809 -1914h-260z" />
<glyph unicode="0" horiz-adv-x="1417" d="M90 727q0 123 27.5 247t97.5 222t187.5 159.5t297.5 61.5q186 0 307 -61.5t192 -159.5t99.5 -221t28.5 -248q0 -748 -627 -747q-311 0 -460.5 185t-149.5 562zM375 727q0 -74 8 -163t41 -167t97.5 -130t178.5 -52q113 0 179.5 52t100.5 129t44 167t10 164t-13 154 t-50 147.5t-101.5 111.5t-169.5 44q-109 0 -173 -44t-98 -111.5t-44 -148.5t-10 -153z" />
<glyph unicode="1" horiz-adv-x="806" d="M49 1026v182q70 0 132.5 9.5t108.5 29t72.5 51t26.5 74.5v27h254v-1399h-287v1026h-307z" />
<glyph unicode="2" horiz-adv-x="1304" d="M90 0v184q0 123 60.5 211t152.5 155.5t197.5 120t198 103.5t152.5 108.5t60 135.5q0 88 -63.5 140t-190.5 52q-49 0 -95 -12t-82 -36.5t-56.5 -58.5t-20.5 -77h-276q0 195 136 295t390 100q248 0 378 -105.5t130 -297.5q0 -125 -56 -210t-140 -147.5t-183.5 -110.5 t-183.5 -94t-140.5 -101.5t-56.5 -131.5h773v-223h-1084z" />
<glyph unicode="3" horiz-adv-x="1345" d="M94 377l281 -2q25 -86 104.5 -124t190.5 -38q141 0 222 48t81 145q0 211 -326 210h-90v205h90q156 0 216.5 44t60.5 145q0 82 -57.5 128t-184.5 46q-100 0 -163.5 -47t-86.5 -115h-287q0 182 138.5 287.5t386.5 105.5q258 0 398 -106.5t140 -298.5q0 -47 -14 -88t-39 -78 t-54.5 -66.5t-60.5 -50.5q90 -49 150.5 -130t60.5 -191q0 -96 -41 -174t-115.5 -133.5t-182 -86t-242.5 -30.5q-125 0 -228.5 25.5t-179.5 74.5t-120 123t-48 172z" />
<glyph unicode="4" horiz-adv-x="1417" d="M80 233v173l756 989h286v-932h215v-230h-215v-233h-286v233h-756zM438 463h398v526z" />
<glyph unicode="5" horiz-adv-x="1304" d="M90 375h287q16 -80 90 -120t174 -40q133 0 201.5 66.5t68.5 197.5q0 135 -67.5 200.5t-190.5 65.5q-84 0 -137 -18t-94 -68h-291l45 734h944v-232h-682l-12 -235q51 23 115.5 35t130.5 12q256 0 391 -128t135 -368q0 -113 -39 -204t-110.5 -155.5t-175 -100t-232.5 -35.5 q-113 0 -209 25.5t-169 75.5t-118 124t-55 168z" />
<glyph unicode="6" horiz-adv-x="1384" d="M90 623q0 225 51.5 381.5t137.5 254t198.5 141.5t233.5 44q109 0 201 -24.5t158.5 -68.5t104 -106.5t37.5 -138.5h-272q-10 63 -69.5 90t-153.5 27q-121 0 -213 -91.5t-117 -281.5q68 49 165 87t196 38q123 0 221 -35t167.5 -99.5t107.5 -156.5t38 -207q0 -119 -46 -211 t-125 -155.5t-185.5 -96t-229.5 -32.5q-139 0 -250.5 43t-190.5 123.5t-122 200.5t-43 274zM412 477q0 -55 23.5 -103t62.5 -84t91 -57.5t107 -21.5q72 0 126.5 21.5t91 57.5t56 84t19.5 103q0 47 -12 95.5t-44 86t-87 62t-141 24.5q-66 0 -120.5 -21.5t-92 -58t-59 -86 t-21.5 -102.5z" />
<glyph unicode="7" horiz-adv-x="1247" d="M33 1161v232h1155v-209q-82 -70 -156 -148q-63 -66 -130.5 -150.5t-108.5 -170.5q-68 -141 -108 -268.5t-62 -227.5q-25 -117 -33 -219h-305q6 102 28 221q20 102 61.5 233.5t119.5 278.5q41 78 96 154t108 137q61 72 125 137h-790z" />
<glyph unicode="8" horiz-adv-x="1378" d="M90 422q0 96 56.5 187t146.5 145q-78 53 -117 124.5t-39 157.5q0 98 47 174t125 127.5t177.5 78t205.5 26.5q111 0 210 -29t174 -82t119 -128t44 -167t-41 -161.5t-115 -120.5q104 -55 154.5 -144.5t50.5 -187.5q0 -115 -47 -198t-129 -136t-189.5 -79.5t-230.5 -26.5 q-129 0 -239.5 27.5t-191.5 82.5t-126 137t-45 193zM385 426q0 -59 24.5 -99t65.5 -65.5t97.5 -37t119.5 -11.5q135 0 216 49t81 164q0 96 -80 152.5t-217 56.5q-141 0 -224 -56.5t-83 -152.5zM430 1036q0 -96 69.5 -138t192.5 -42q121 0 189.5 42t68.5 138 q0 84 -70.5 132.5t-187.5 48.5q-121 0 -191.5 -48.5t-70.5 -132.5z" />
<glyph unicode="9" horiz-adv-x="1347" d="M102 952q0 102 41 191.5t115 156t176.5 105.5t224.5 39q170 0 285 -50.5t184.5 -138.5t99 -209.5t29.5 -263.5q0 -180 -29.5 -327.5t-96 -253t-175 -162.5t-264.5 -57t-258 35.5t-163.5 90t-87 117t-25.5 117.5l282 -2q23 -59 77 -103t157 -44q145 0 221 99t98 271 q-61 -47 -150 -75.5t-202 -28.5q-141 0 -243.5 40t-168 107.5t-96.5 156.5t-31 189zM383 967q0 -49 14.5 -99.5t48 -91.5t88 -67.5t132.5 -26.5q141 0 220 75t79 210q0 53 -22.5 99t-62.5 79t-94.5 51t-119.5 18q-63 0 -115.5 -20t-89.5 -55t-57.5 -79t-20.5 -93z" />
<glyph unicode=":" horiz-adv-x="724" d="M201 0v270h323v-270h-323zM201 664v270h323v-270h-323z" />
<glyph unicode=";" horiz-adv-x="727" d="M201 0v270h325v-237l-90 -250h-211l51 217h-75zM201 664v270h325v-270h-325z" />
<glyph unicode="&#x3c;" horiz-adv-x="1193" d="M96 516v205l1002 354v-225l-670 -232l670 -231v-225z" />
<glyph unicode="=" d="M96 252v201h1118v-201h-1118zM96 723v203h1118v-203h-1118z" />
<glyph unicode="&#x3e;" horiz-adv-x="1193" d="M96 162v225l670 231l-670 232v225l1002 -354v-205z" />
<glyph unicode="?" horiz-adv-x="1232" d="M92 1040q0 106 40 182t107.5 125.5t158.5 73t198 23.5q111 0 203 -26.5t157.5 -78t102.5 -124t37 -166.5q0 -104 -57.5 -195.5t-168.5 -177.5q-37 -27 -60.5 -48.5t-37.5 -43t-20.5 -45t-6.5 -54.5v-49h-276v51q0 84 25.5 143.5t63.5 102.5t83 77t83 67.5t63.5 73.5 t25.5 98q0 86 -56.5 135t-160.5 49q-98 0 -148.5 -50t-66.5 -143h-289zM444 0v270h328v-270h-328z" />
<glyph unicode="@" horiz-adv-x="1943" d="M68 627q0 170 73.5 315t199.5 250.5t293 166t355 60.5q223 0 390 -62.5t277.5 -167t165 -241.5t54.5 -286q0 -211 -102.5 -327t-307.5 -116q-31 0 -63.5 9.5t-63 25.5t-54 39.5t-36.5 52.5q-25 -35 -65.5 -62.5t-88.5 -46t-98.5 -27.5t-91.5 -9q-74 0 -140.5 14 t-116.5 45t-79.5 80t-29.5 121q0 57 34.5 101t88 74t116 45t119.5 19l258 13v26q0 55 -43 99.5t-133 44.5q-76 0 -116 -20.5t-58 -61.5l-223 -2q12 82 52 132t95 77.5t120.5 37t129.5 9.5q111 0 184.5 -24.5t118.5 -68.5t64.5 -104.5t21.5 -130.5l-16 -242q0 -35 31.5 -69.5 t89.5 -34.5q178 0 178 281q0 123 -49.5 227t-137.5 180t-209.5 119t-265.5 43q-152 0 -280.5 -48t-223 -131t-146.5 -192.5t-52 -232.5q0 -139 56 -249t152.5 -186.5t224.5 -116.5t269 -40q86 0 165 24.5t171 67.5l111 -172q-231 -96 -453 -96q-209 0 -378 56t-288.5 157.5 t-184 243t-64.5 311.5zM768 459q0 -74 145 -74q104 0 172 40t68 124l-240 -10q-78 -2 -111.5 -22.5t-33.5 -57.5z" />
<glyph unicode="A" horiz-adv-x="1601" d="M10 0l664 1419h250l667 -1419h-307l-160 352h-655l-160 -352h-299zM567 567h459l-227 549z" />
<glyph unicode="B" horiz-adv-x="1490" d="M150 0v1419h567q307 0 463.5 -97t156.5 -312q0 -96 -49 -172t-129 -115q92 -37 159 -117.5t71 -193.5q0 -217 -148.5 -314.5t-452.5 -97.5h-638zM434 223h385q135 0 207 42t72 147q0 92 -77 141t-202 49h-385v-379zM434 825h338q141 0 209 41t68 144q0 92 -74 138 t-203 46h-338v-369z" />
<glyph unicode="C" horiz-adv-x="1499" d="M68 713q0 141 30.5 272t108.5 232.5t213 162t342 60.5q147 0 262 -32t194.5 -91.5t125 -143t57.5 -186.5h-297q-10 45 -36 87t-66.5 74t-96 50.5t-125.5 18.5h-32q-117 0 -193 -42t-121 -113t-62.5 -161t-17.5 -188q0 -92 16.5 -183.5t59.5 -163t120 -116.5t198 -45h28 q76 0 134.5 21.5t98.5 57t63.5 80t31.5 91.5h297q-16 -219 -173 -346t-466 -127q-199 0 -332 60t-214 160.5t-114.5 232.5t-33.5 278z" />
<glyph unicode="D" horiz-adv-x="1495" d="M150 0v1419h514q381 0 560 -179t179 -531q0 -158 -36 -288t-120 -224.5t-223 -145.5t-346 -51h-528zM434 223h244q129 0 214 34t135 96.5t69.5 152.5t19.5 203q0 248 -108.5 367.5t-343.5 119.5h-230v-973z" />
<glyph unicode="E" d="M150 0v1419h1058v-225h-774v-373h729v-221h-729v-375h795v-225h-1079z" />
<glyph unicode="F" horiz-adv-x="1236" d="M150 0v1419h1026v-223h-736v-383h703v-219h-703v-594h-290z" />
<glyph unicode="G" horiz-adv-x="1540" d="M68 713q0 141 30.5 272t108.5 232.5t212 162t341 60.5q145 0 261 -35t197.5 -95.5t128 -143.5t56.5 -179h-291q-10 45 -37.5 86t-72 72t-101.5 49t-125 18h-28q-119 0 -196 -42t-121 -110.5t-61.5 -158.5t-17.5 -188q0 -92 13.5 -183.5t55.5 -163t116.5 -116.5t197.5 -45 h27q100 0 174 27.5t123 73.5t73.5 107.5t30.5 129.5h-481v211h743v-754h-247v184q-29 -55 -73 -93t-101.5 -62.5t-122 -35.5t-131.5 -11q-201 0 -332 60t-209 160.5t-109.5 232.5t-31.5 278z" />
<glyph unicode="H" horiz-adv-x="1552" d="M150 0v1419h284v-579h686v579h283v-1419h-283v621h-686v-621h-284z" />
<glyph unicode="I" horiz-adv-x="583" d="M150 0v1419h284v-1419h-284z" />
<glyph unicode="J" horiz-adv-x="1150" d="M31 348h291q10 -70 52 -109.5t130 -39.5q72 0 116 20.5t67.5 62.5t30.5 106.5t7 154.5v876h283v-897q0 -104 -11.5 -201.5t-61.5 -173t-151.5 -120.5t-279.5 -45q-117 0 -203 27.5t-143.5 76.5t-88 115.5t-38.5 146.5z" />
<glyph unicode="K" horiz-adv-x="1523" d="M150 0v1419h288v-655l709 655h377l-684 -610l684 -809h-346l-527 641l-213 -207v-434h-288z" />
<glyph unicode="L" horiz-adv-x="1218" d="M150 0v1419h284v-1194h733v-225h-1017z" />
<glyph unicode="M" horiz-adv-x="1921" d="M150 0v1419h331l480 -1095l479 1095h332v-1419h-283v997l-430 -997h-199l-430 997v-997h-280z" />
<glyph unicode="N" horiz-adv-x="1615" d="M150 0v1419h315l717 -1048v1048h284v-1419h-313l-721 1047v-1047h-282z" />
<glyph unicode="O" horiz-adv-x="1527" d="M68 713q0 141 30.5 272t108.5 232.5t212 162t343 60.5t345 -60.5t214 -162t108.5 -232.5t30.5 -272q0 -145 -33.5 -277.5t-114.5 -233t-215 -160.5t-335 -60q-199 0 -332 60t-214 160.5t-114.5 232.5t-33.5 278zM352 713q0 -92 15.5 -183.5t59.5 -163t121 -116.5t200 -45 h26q123 0 202 45t123 116.5t60.5 163t16.5 183.5q0 98 -17.5 188t-62.5 159.5t-123 111.5t-197 42h-28q-119 0 -196 -42t-121 -111.5t-61.5 -159.5t-17.5 -188z" />
<glyph unicode="P" horiz-adv-x="1398" d="M150 0v1419h561q135 0 249.5 -24.5t196.5 -76.5t128 -135t46 -198q0 -123 -45 -205t-125 -133t-190.5 -72.5t-243.5 -21.5h-295v-553h-282zM432 774h338q145 0 208.5 48t70.5 161q-4 109 -79 160t-200 51h-338v-420z" />
<glyph unicode="Q" horiz-adv-x="1527" d="M68 713q0 141 30.5 272t108.5 232.5t212 162t343 60.5t345 -60.5t214 -162t108.5 -232.5t30.5 -272q0 -158 -41 -298.5t-139 -244.5l135 -145l-209 -131l-129 139q-63 -23 -143 -37t-172 -14q-199 0 -332 60t-214 160.5t-114.5 232.5t-33.5 278zM352 713 q0 -92 15.5 -183.5t59.5 -163t121 -116.5t200 -45h26q35 0 65.5 6t57.5 14l-127 146l207 137l125 -137q45 72 60.5 158.5t15.5 183.5q0 98 -17.5 188t-63.5 159.5t-124 111.5t-197 42h-28q-119 0 -196 -42t-121 -111.5t-61.5 -159.5t-17.5 -188z" />
<glyph unicode="R" horiz-adv-x="1507" d="M150 0v1419h550q133 0 247 -25.5t198 -77.5t132 -133t48 -192q0 -154 -90 -252t-250 -137l455 -602h-334l-432 565h-240v-565h-284zM434 786h320q141 0 210.5 47.5t69.5 157.5q0 51 -21.5 90t-59.5 64.5t-89 38t-110 12.5h-320v-410z" />
<glyph unicode="S" horiz-adv-x="1429" d="M72 424h303q8 -53 39.5 -96t81 -73t112 -45t131.5 -15q51 0 109.5 13t108 38.5t81 64.5t31.5 88q0 66 -41 106t-106.5 64.5t-150.5 41t-173 35t-173 44t-150.5 70.5t-106.5 113.5t-41 173.5q0 96 45 169.5t124 123t186.5 75t232.5 25.5q154 0 268.5 -31t190 -86 t113.5 -131t38 -166h-283q0 43 -25.5 80t-68.5 65.5t-100 45t-121 16.5q-145 0 -232 -51.5t-87 -128.5q0 -53 40.5 -87t107.5 -56.5t152 -40t174 -38t175 -49t152.5 -78t107.5 -121t41 -175.5q0 -111 -50.5 -191t-134 -132t-196.5 -77.5t-238 -25.5q-141 0 -264 24.5 t-212 77.5t-140 137t-51 203z" />
<glyph unicode="T" horiz-adv-x="1320" d="M0 1196v223h1321v-223h-520v-1196h-283v1196h-518z" />
<glyph unicode="U" horiz-adv-x="1601" d="M137 586v833h279v-811q0 -80 15 -153.5t58 -131t118 -92t194 -34.5q113 0 186.5 33.5t117.5 90t61.5 131t17.5 156.5v811h280v-833q0 -139 -36.5 -252t-116.5 -192t-205 -120.5t-301 -41.5q-199 0 -328 47t-204.5 130t-105.5 192.5t-30 236.5z" />
<glyph unicode="V" horiz-adv-x="1478" d="M0 1419h307l438 -1143l437 1143h297l-590 -1419h-297z" />
<glyph unicode="W" horiz-adv-x="2250" d="M-12 1419h315l330 -1128l356 1128h283l350 -1128q43 129 85 274.5t85 293t85 290.5t83 270h303l-496 -1419h-292l-347 1073l-348 -1073h-295z" />
<glyph unicode="X" horiz-adv-x="1546" d="M-25 0l621 729l-588 690h367l405 -512l404 512h358l-596 -686q74 -84 154 -178t161.5 -189.5t160.5 -188.5t149 -177h-363l-440 555l-438 -555h-355z" />
<glyph unicode="Y" horiz-adv-x="1480" d="M-14 1419h325l426 -667l439 667h319l-621 -866v-553h-284v553z" />
<glyph unicode="Z" horiz-adv-x="1376" d="M51 0v219l936 975h-893v225h1223v-223l-938 -971h946v-225h-1274z" />
<glyph unicode="[" horiz-adv-x="786" d="M213 -340v1878h475v-182h-223v-1514h223v-182h-475z" />
<glyph unicode="\" horiz-adv-x="1056" d="M-12 1554h260l821 -1914h-262z" />
<glyph unicode="]" horiz-adv-x="786" d="M98 -158h224v1514h-224v182h475v-1878h-475v182z" />
<glyph unicode="^" horiz-adv-x="1292" d="M123 942l407 596h230l409 -596h-305l-219 320l-217 -320h-305z" />
<glyph unicode="_" horiz-adv-x="1249" d="M0 -166h1249v-199h-1249v199z" />
<glyph unicode="`" horiz-adv-x="319" d="M-113 1389l224 147l290 -336l-182 -125z" />
<glyph unicode="a" horiz-adv-x="1224" d="M76 295q0 80 42 138.5t107.5 97t148.5 58t163 21.5l307 11v45q0 86 -56.5 128t-158.5 42q-88 0 -148.5 -33t-66.5 -88l-275 2q6 63 41 119.5t97.5 98.5t150.5 66.5t201 24.5q137 0 229 -29.5t148.5 -85t80 -133.5t23.5 -172v-456q0 -47 2 -77t6 -46q4 -20 8 -27h-241 q-4 8 -8 27q-4 16 -6.5 42.5t-2.5 73.5q-20 -37 -56 -66.5t-79 -51t-92 -33.5t-98 -12q-86 0 -169 17t-149.5 54t-107.5 97.5t-41 146.5zM348 291q0 -47 57.5 -79t147.5 -32q63 0 117.5 18.5t93.5 51.5t60.5 74t21.5 88v24l-295 -10q-102 -4 -152.5 -40t-50.5 -95z" />
<glyph unicode="b" horiz-adv-x="1308" d="M115 0v1419h266v-508q25 27 59.5 48.5t73.5 36t77 22.5t73 8q150 0 257 -38t177.5 -107.5t104.5 -164.5t34 -212q0 -252 -143.5 -388t-397.5 -136q-88 0 -148.5 20t-101.5 47q-47 29 -77 68v-115h-254zM377 475q0 -53 17.5 -106.5t52 -96.5t89 -70.5t128.5 -27.5 q80 0 136 27.5t93 72.5t53.5 104.5t16.5 123.5q0 63 -16.5 123.5t-53.5 107.5t-93 75t-136 28q-72 0 -125.5 -27t-88 -71t-53 -101t-20.5 -119v-43z" />
<glyph unicode="c" horiz-adv-x="1259" d="M72 504q0 117 33.5 212t104.5 163.5t178.5 106.5t256.5 38q98 0 188.5 -22.5t161 -66.5t118.5 -108.5t67 -148.5h-287q-29 72 -95.5 115t-152.5 43q-80 0 -136 -28t-93 -75t-53.5 -107.5t-16.5 -123.5t16.5 -123t53.5 -105t93 -72.5t136 -27.5q113 0 177.5 52.5 t84.5 140.5h281q-29 -186 -169 -286.5t-374 -100.5q-285 0 -429 136t-144 388z" />
<glyph unicode="d" horiz-adv-x="1304" d="M68 504q0 117 33.5 212t104 164.5t178.5 107.5t257 38q33 0 72 -8t77.5 -22.5t73.5 -36t60 -48.5v508h266v-1419h-254v115q-31 -39 -78 -68q-41 -27 -102.5 -47t-147.5 -20q-254 0 -397 136t-143 388zM342 502q0 -63 16.5 -123t53.5 -105t93 -72.5t136 -27.5 q74 0 128 27.5t89 70.5t52.5 96.5t17.5 106.5v43q-2 61 -20.5 118.5t-53.5 101.5t-88 71t-125 27q-80 0 -136 -28t-93 -75t-53.5 -107.5t-16.5 -123.5z" />
<glyph unicode="e" horiz-adv-x="1277" d="M78 502q0 133 42 231t116.5 163t181 96.5t235.5 31.5q123 0 224.5 -33t173 -97.5t110.5 -161.5t39 -226v-72h-844q6 -53 24.5 -100t54.5 -83t90.5 -56.5t131.5 -20.5q211 0 261 160h282q-25 -98 -74 -166t-119.5 -110t-159.5 -60t-190 -18q-152 0 -261 39.5t-180 109.5 t-104.5 165t-33.5 208zM360 621h555q-4 43 -24.5 81.5t-54 68.5t-79.5 47.5t-104 17.5q-68 0 -120 -18.5t-88.5 -48.5t-57 -68.5t-27.5 -79.5z" />
<glyph unicode="f" horiz-adv-x="802" d="M20 807v199h197v149q0 129 82 206t242 77q43 0 111.5 -4t129.5 -15v-192q-29 2 -58.5 4t-56 3t-47 1h-28.5q-102 0 -103 -113v-116h293v-199h-293v-807h-272v807h-197z" />
<glyph unicode="g" horiz-adv-x="1308" d="M59 506q0 123 39 219t112 163.5t176 102.5t230 35q78 0 135.5 -19.5t96.5 -41.5q45 -27 76 -60v101h262v-1024q0 -98 -40 -174t-111.5 -129.5t-169 -81t-214.5 -27.5q-121 0 -221 18.5t-172 56.5t-112 98t-40 146h289q10 -51 71.5 -84.5t160.5 -33.5q135 0 213 56t78 161 v121q-33 -37 -76 -66q-39 -25 -94.5 -44t-131.5 -19q-145 0 -250.5 38.5t-173 108.5t-100.5 167t-33 212zM338 504q0 -72 18.5 -131.5t56.5 -104.5t94 -69.5t130 -24.5q76 0 130 28.5t89 76t50.5 106.5t15.5 119q0 59 -15.5 118.5t-50.5 106.5t-89 77t-132 30 q-74 0 -130 -26t-93 -70t-55.5 -105.5t-18.5 -130.5z" />
<glyph unicode="h" horiz-adv-x="1314" d="M115 0v1419h268v-512q59 66 143 92.5t166 26.5q233 0 370.5 -88t137.5 -283v-655h-270v643q0 45 -20.5 81t-57.5 60.5t-86 38t-107 13.5q-117 0 -193.5 -57.5t-76.5 -160.5v-618h-274z" />
<glyph unicode="i" horiz-adv-x="530" d="M123 1198v244h285v-244h-285zM129 0v1006h270v-1006h-270z" />
<glyph unicode="j" horiz-adv-x="518" d="M-106 -205v-211h71q125 0 206 23.5t129 67.5t66.5 108.5t18.5 146.5v1076h-270v-1018q0 -61 -11.5 -99.5t-36 -58.5t-62.5 -27.5t-89 -7.5h-22zM111 1198v244h284v-244h-284z" />
<glyph unicode="k" horiz-adv-x="1222" d="M115 0v1419h270v-837l487 424h361l-520 -443q59 -66 125.5 -137.5t134 -145t132 -145.5t122.5 -135h-334l-369 391l-139 -117v-274h-270z" />
<glyph unicode="l" horiz-adv-x="516" d="M123 0v1419h270v-1419h-270z" />
<glyph unicode="m" horiz-adv-x="1933" d="M115 0v1006h262v-95q23 25 54.5 46.5t69.5 37t78.5 23.5t79.5 8q76 0 131.5 -8t96.5 -22.5t70.5 -36t54.5 -48.5q63 55 149 85t199 30q244 0 351.5 -88t107.5 -283v-655h-271v643q0 100 -54 146.5t-165 46.5t-169 -54.5t-58 -163.5v-618h-271v643q0 100 -55 146.5 t-166 46.5q-225 0 -225 -218v-618h-270z" />
<glyph unicode="n" d="M115 0v1006h260v-99q57 63 144 91t169 28q233 0 370.5 -88t137.5 -283v-655h-270v643q0 45 -21.5 81t-58.5 60.5t-86 38t-105 13.5q-119 0 -194.5 -57.5t-75.5 -160.5v-618h-270z" />
<glyph unicode="o" horiz-adv-x="1300" d="M78 504q0 117 33.5 212t104.5 163.5t179.5 106.5t255.5 38t256 -38t178.5 -106.5t103.5 -163.5t34 -212q0 -252 -142.5 -388t-429.5 -136q-285 0 -429 136t-144 388zM354 502q0 -63 16.5 -123t52.5 -105t92 -72.5t136 -27.5t136.5 27.5t92 72.5t52 104.5t16.5 123.5 q0 63 -16.5 123.5t-52 107.5t-92 75t-136.5 28t-136 -28t-92 -75t-52.5 -107.5t-16.5 -123.5z" />
<glyph unicode="p" horiz-adv-x="1304" d="M115 -416v1422h260v-95q29 33 71 58q37 23 94.5 41t141.5 18q141 0 245.5 -39t173 -107.5t102.5 -164.5t34 -213q0 -252 -136 -388t-409 -136q-78 0 -137 20t-100 47q-47 29 -80 68v-531h-260zM377 475q0 -53 17.5 -106.5t52 -96.5t89 -70.5t128.5 -27.5q80 0 136 27.5 t93 72.5t53.5 104.5t16.5 123.5q0 63 -16.5 123.5t-53.5 107.5t-93 75t-136 28q-72 0 -125.5 -27t-88 -71t-53 -101t-20.5 -119v-43z" />
<glyph unicode="q" horiz-adv-x="1304" d="M68 504q0 117 33.5 213t102 164.5t173 107.5t246.5 39q74 0 131 -18.5t96 -40.5q45 -25 80 -58v95h260v-1422h-260v531q-33 -39 -80 -68q-41 -27 -100.5 -47t-137.5 -20q-272 0 -408 136t-136 388zM342 502q0 -63 16.5 -123t53.5 -105t93 -72.5t136 -27.5q74 0 128 27.5 t89 70.5t52.5 96.5t17.5 106.5v43q-2 61 -20.5 118.5t-53.5 101.5t-88 71t-125 27q-80 0 -136 -28t-93 -75t-53.5 -107.5t-16.5 -123.5z" />
<glyph unicode="r" horiz-adv-x="858" d="M115 0v1006h262v-78q51 53 127 75.5t160 22.5q29 0 75.5 -1t87.5 -9v-205q-20 4 -43.5 8t-46 6t-42 3t-31.5 1q-137 0 -208 -68.5t-71 -217.5v-543h-270z" />
<glyph unicode="s" horiz-adv-x="1093" d="M66 283h280q8 -53 70.5 -81t144.5 -28q35 0 70 5t63.5 19.5t47 38t18.5 58.5q0 29 -18.5 48t-51.5 31.5t-75 20.5t-91 15q-78 12 -154.5 26.5t-139 45t-101.5 86t-39 147.5q0 82 37 140t98.5 96t143.5 55.5t174 17.5q94 0 174 -19.5t138 -56.5t92 -91t34 -126h-254 q-4 23 -21.5 42.5t-43 32.5t-57.5 21.5t-64 8.5q-72 0 -128.5 -27t-56.5 -74q0 -33 20.5 -54.5t56.5 -35.5t82 -22.5t95 -14.5q76 -10 151 -25.5t134 -48t96 -90t37 -151.5q0 -88 -42 -148.5t-109.5 -97.5t-150.5 -52t-165 -15q-100 0 -189 17t-157 54t-107.5 94.5 t-41.5 137.5z" />
<glyph unicode="t" horiz-adv-x="782" d="M20 807v199h175v294h270v-294h274v-199h-274v-522q0 -49 23.5 -73t78.5 -24q16 0 39 2.5t45.5 4.5t42 4t29.5 4v-203q-61 -10 -119.5 -12t-85.5 -2q-162 0 -242.5 77.5t-80.5 206.5v537h-175z" />
<glyph unicode="u" d="M115 350v656h270v-639q0 -45 21.5 -81t58.5 -60.5t86 -38t104 -13.5q119 0 195 57.5t76 159.5v615h270v-1006h-256l-4 98q-57 -63 -146.5 -90.5t-171.5 -27.5q-233 0 -368 88t-135 282z" />
<glyph unicode="v" horiz-adv-x="1214" d="M0 1006h287l317 -725l320 725h290l-487 -1006h-250z" />
<glyph unicode="w" horiz-adv-x="1830" d="M8 1006h285l242 -687l262 687h239l260 -684l240 684h287l-393 -1006h-252l-263 696l-264 -696h-248z" />
<glyph unicode="x" horiz-adv-x="1275" d="M12 0l469 520l-444 486h340l268 -322l258 322h338l-442 -486l465 -520h-336l-291 350l-285 -350h-340z" />
<glyph unicode="y" horiz-adv-x="1216" d="M0 1006h289l315 -730l324 730h289l-590 -1166q-25 -47 -52.5 -89t-64.5 -73.5t-86 -50t-115 -18.5q-55 0 -100 7t-98 24v198q29 -6 55 -10q51 -10 98 -10q43 0 75 25.5t55.5 60.5t39 71.5t27.5 61.5z" />
<glyph unicode="z" horiz-adv-x="1142" d="M68 0v170l637 629h-601v207h967v-170l-635 -629h639v-207h-1007z" />
<glyph unicode="{" horiz-adv-x="929" d="M121 500v205h117q72 0 91 30.5t19 85.5v443q0 147 78 210.5t246 63.5h149v-182h-112q-66 0 -88.5 -25.5t-22.5 -75.5v-467q0 -55 -20.5 -102t-73.5 -86q53 -37 73.5 -84t20.5 -100v-475q0 -49 22.5 -75t88.5 -26h112v-182h-149q-168 0 -246 63.5t-78 210.5v451 q0 55 -19.5 86t-90.5 31h-117z" />
<glyph unicode="|" horiz-adv-x="479" d="M119 -342v1880h241v-1880h-241z" />
<glyph unicode="}" horiz-adv-x="929" d="M109 -160h114q66 0 88.5 25.5t22.5 75.5v475q0 53 19.5 100t72.5 84q-53 39 -72.5 86t-19.5 102v467q0 49 -22.5 75t-88.5 26h-114v182h151q168 0 246 -63.5t78 -210.5v-443q0 -55 19.5 -85.5t90.5 -30.5h115v-205h-115q-72 0 -91 -31t-19 -86v-451q0 -147 -78 -210.5 t-246 -63.5h-151v182z" />
<glyph unicode="~" horiz-adv-x="1564" d="M135 600q96 72 195.5 122t212.5 50q84 0 157.5 -19.5t139.5 -41.5q47 -16 93 -29.5t87 -13.5q66 0 122 30.5t105 71.5l183 -149q-51 -41 -98.5 -73t-95.5 -54.5t-101.5 -35t-114.5 -12.5q-78 0 -145.5 17.5t-131.5 40.5q-51 18 -102 33.5t-100 15.5q-59 0 -117.5 -32 t-112.5 -77z" />
<glyph unicode="&#xa1;" horiz-adv-x="706" d="M201 743v263h305v-263h-305zM205 -43l39 614h221l39 -614v-371h-299v371z" />
<glyph unicode="&#xa2;" horiz-adv-x="1361" d="M123 702q0 102 27.5 189.5t83 154t141.5 110.5t203 58v230h239v-232q76 -12 145.5 -41.5t126 -72.5t94.5 -100.5t52 -125.5h-291q-14 53 -47 85t-80 47v-607q47 23 87 64t50 100h285q-14 -88 -52 -154.5t-94.5 -113.5t-127 -75t-148.5 -36v-202h-239v200 q-227 29 -341 164t-114 358zM399 700q0 -104 41 -185t138 -114v605q-96 -35 -137.5 -118.5t-41.5 -187.5z" />
<glyph unicode="&#xa3;" horiz-adv-x="1419" d="M94 0v231h180v398h-135v211h135v161q0 100 36 182.5t102.5 139.5t160 88t209.5 31q109 0 195 -29t146.5 -75t92 -105t31.5 -121h-270q-4 14 -14.5 32.5t-33 34t-59 25.5t-90.5 10q-102 0 -161.5 -55t-59.5 -153v-166h332v-211h-332v-398h328q59 0 100 36t51 108l287 -41 q-23 -154 -125 -244t-289 -90h-817z" />
<glyph unicode="&#xa4;" horiz-adv-x="1423" d="M74 281l205 165q-35 49 -52.5 101.5t-17.5 118.5q0 61 18.5 115.5t46.5 101.5l-200 164l182 151l197 -158q59 29 122.5 44.5t137.5 15.5q72 0 137 -15.5t123 -42.5l194 158l183 -153l-197 -160q31 -51 48.5 -103.5t17.5 -117.5q0 -66 -17.5 -119t-50.5 -105l197 -163 l-183 -152l-194 162q-57 -27 -121 -42.5t-137 -15.5q-72 0 -137.5 16.5t-122.5 41.5l-197 -160zM467 666q0 -96 67.5 -163t178.5 -67q55 0 101 18.5t78 49.5t50.5 72.5t18.5 89.5q0 47 -18.5 89t-50.5 72.5t-78 49t-101 18.5q-111 0 -178.5 -66.5t-67.5 -162.5z" />
<glyph unicode="&#xa5;" horiz-adv-x="1490" d="M8 1419h320l415 -614l428 614h312l-469 -653h268v-195h-405v-133h405v-194h-405v-244h-277v244h-393v194h393v133h-393v195h256z" />
<glyph unicode="&#xa6;" horiz-adv-x="479" d="M119 -342v829h241v-829h-241zM119 713v825h241v-825h-241z" />
<glyph unicode="&#xa7;" horiz-adv-x="1187" d="M80 772q0 74 43 133.5t102 104.5q-41 43 -60.5 90t-19.5 106q0 80 38 136.5t99.5 92t142.5 53t167 17.5q193 0 299 -76.5t106 -220.5h-243q-18 47 -63.5 73t-98.5 26q-92 0 -136 -27t-44 -74q0 -33 22.5 -58.5t60 -47t87 -41t104.5 -39.5q76 -29 150.5 -59.5t135 -73.5 t98.5 -100.5t38 -139.5q0 -70 -39 -128t-96 -101q35 -41 55.5 -92.5t20.5 -108.5q0 -78 -43 -136t-111 -97t-150.5 -58.5t-162.5 -19.5q-98 0 -187.5 21.5t-157 62.5t-107.5 102.5t-40 140.5h277q10 -53 64 -91t151 -38q33 0 67.5 7.5t62 23t46 37t18.5 49.5q0 55 -51 96 t-129 77t-168 71t-168 77t-129 97t-51 133zM346 786q0 -35 50 -68.5t120 -66.5t144.5 -63.5t125.5 -57.5q33 25 43.5 53.5t10.5 63.5q0 25 -21.5 48.5t-67.5 49t-119 58.5t-175 76l-41 20q-70 -41 -70 -113z" />
<glyph unicode="&#xa8;" horiz-adv-x="659" d="M-61 1077v254h284v-254h-284zM434 1077v254h287v-254h-287z" />
<glyph unicode="&#xa9;" horiz-adv-x="1540" d="M68 709q0 162 52 296t146 230t224.5 149.5t285.5 53.5q164 0 293 -55.5t218 -154t136 -231t47 -288.5q-4 -160 -54 -294t-139 -230.5t-215 -150.5t-286 -54t-291 57t-224 156.5t-143 232.5t-50 283zM274 709q0 -115 37 -213.5t103.5 -170t159 -112.5t202.5 -41 q113 0 204 45t154.5 119t97.5 171.5t34 201.5q0 111 -35 208t-97.5 169.5t-151.5 115.5t-200 43q-117 0 -210 -43t-159.5 -116.5t-102.5 -171t-36 -205.5zM412 713q0 86 21.5 157.5t66.5 124t115.5 81t166.5 28.5q139 0 230.5 -66.5t111.5 -191.5h-213q-16 41 -45.5 54 t-83.5 13q-86 0 -119.5 -59t-33.5 -141q0 -39 8 -75t25.5 -63.5t47 -44t72.5 -16.5q72 0 106 27.5t40 68.5h205q-23 -147 -115 -222t-236 -75q-184 0 -277 104.5t-93 295.5z" />
<glyph unicode="&#xaa;" horiz-adv-x="614" d="M25 915q0 49 22.5 82t58 54.5t79.5 31t87 9.5h123q0 59 -23.5 76.5t-64.5 17.5q-31 0 -51 -7.5t-33 -29.5h-168q2 33 19.5 63.5t51.5 55t84 40t118 15.5q72 0 120 -16.5t77.5 -46t42 -71.5t12.5 -93v-265q0 -12 1 -26t3 -25q2 -12 6 -24h-176q-2 2 -4 8q-4 12 -4 31 q-27 -20 -60 -32.5t-92 -12.5q-45 0 -87 10t-74 29.5t-50 51t-18 74.5zM193 926q0 -25 20 -41.5t68 -16.5q53 0 83.5 16.5t30.5 63.5v39h-76q-18 0 -40.5 -2t-41 -8t-31.5 -18.5t-13 -32.5z" />
<glyph unicode="&#xab;" horiz-adv-x="1703" d="M156 504l397 465h324l-400 -465l400 -463h-324zM799 504l399 465h322l-398 -465l398 -463h-322z" />
<glyph unicode="&#xac;" horiz-adv-x="1196" d="M96 539v215h1004v-580h-264v365h-740z" />
<glyph unicode="&#xad;" horiz-adv-x="972" d="M131 485v213h711v-213h-711z" />
<glyph unicode="&#xae;" horiz-adv-x="1058" d="M68 1075q0 100 29.5 189.5t87 155t143.5 103.5t200 38q113 0 200 -38t144.5 -103.5t87 -154.5t29.5 -190q0 -102 -29.5 -190t-87 -153.5t-144.5 -103.5t-200 -38q-115 0 -200.5 38t-143 103.5t-87 153.5t-29.5 190zM199 1075q0 -76 20.5 -142.5t61.5 -115.5t102 -77.5 t145 -28.5q82 0 144.5 28.5t103.5 77.5t61.5 115.5t20.5 142.5t-20.5 142.5t-61.5 115.5t-103.5 78t-144.5 29q-84 0 -145 -29t-102 -78t-61.5 -115.5t-20.5 -142.5zM334 811v530h178q82 0 138.5 -36.5t56.5 -126.5q0 -59 -33 -100.5t-94 -51.5l141 -215h-123l-121 203h-39 v-203h-104zM438 1110h86q31 0 53.5 16.5t22.5 49.5t-21.5 48t-54.5 15h-86v-129z" />
<glyph unicode="&#xb0;" horiz-adv-x="974" d="M117 1112q0 70 28.5 129t78.5 100t118 65t145 24q78 0 145.5 -24t118 -67t79 -101t28.5 -126t-28.5 -126t-79 -101t-118 -66.5t-145.5 -23.5t-145.5 23.5t-117.5 66.5t-78.5 101t-28.5 126zM328 1112q0 -59 47 -98t112 -39q66 0 112 39t46 98t-46 98t-112 39t-112.5 -39 t-46.5 -98z" />
<glyph unicode="&#xb1;" horiz-adv-x="1267" d="M96 584v194h420v328h238v-328h417v-194h-417v-303h-238v303h-420zM125 0v203h1024v-203h-1024z" />
<glyph unicode="&#xb2;" horiz-adv-x="770" d="M66 715v135q0 66 32.5 113t80.5 84.5t105.5 66.5t105.5 57.5t81 58.5t33 68q0 37 -33 64t-80 27q-51 0 -79.5 -26t-30.5 -54h-205q2 113 88 176t227 63q145 0 223 -65.5t78 -175.5q0 -68 -29.5 -116t-74.5 -84t-98.5 -63.5t-98.5 -53t-74.5 -54.5t-29.5 -66h418v-155 h-639z" />
<glyph unicode="&#xb3;" horiz-adv-x="811" d="M55 950h219q0 -37 33 -64.5t99 -27.5q76 0 105.5 35t29.5 70q0 43 -36 75.5t-110 32.5h-80v133h68q55 0 84 28t29 66q0 41 -31 66t-78 25q-39 0 -80 -17.5t-41 -62.5h-200q4 123 95 184t234 61q160 0 242 -64.5t82 -182.5q0 -63 -27.5 -99.5t-62.5 -60.5q41 -25 77.5 -70 t36.5 -112q0 -49 -21.5 -96.5t-65.5 -84t-109.5 -58t-151.5 -21.5q-145 0 -239.5 63t-100.5 182z" />
<glyph unicode="&#xb4;" horiz-adv-x="516" d="M76 1659l377 287l176 -185l-408 -252z" />
<glyph unicode="&#xb5;" horiz-adv-x="1302" d="M115 -416v1422h270v-631q0 -45 20.5 -81t57.5 -60.5t86 -38t104 -13.5q117 0 191 57.5t74 159.5v607h270v-1006h-262v96q-23 -25 -46.5 -45t-57.5 -36.5t-82 -25.5t-119 -9q-143 0 -240 53v-449h-266z" />
<glyph unicode="&#xb6;" horiz-adv-x="1345" d="M43 1034q0 78 27.5 148.5t80 123t128.5 83t170 30.5h774v-129h-189v-1560h-157v1554h-273v-1554h-155v929q-98 2 -174 33t-127.5 82t-78 117.5t-26.5 142.5z" />
<glyph unicode="&#xb8;" horiz-adv-x="382" d="M-6 -76l96 178h164l-57 -102h20q76 0 124 -45t48 -111q0 -86 -56.5 -127t-160.5 -41q-70 0 -113 28t-63 63l108 59q10 -18 26.5 -29.5t41.5 -11.5q72 0 72 59q0 23 -18.5 41.5t-53.5 18.5q-33 0 -52.5 -10.5t-33.5 -22.5z" />
<glyph unicode="&#xb9;" horiz-adv-x="563" d="M12 1286v117q86 0 146.5 30.5t60.5 100.5h172v-819h-205v571h-174z" />
<glyph unicode="&#xba;" horiz-adv-x="696" d="M43 1135q0 129 71.5 206.5t231.5 77.5q162 0 234.5 -77.5t72.5 -206.5q0 -139 -76.5 -212t-230.5 -73t-228.5 72.5t-74.5 212.5zM225 1133q0 -59 29 -99.5t94 -40.5q66 0 95.5 40t29.5 100q0 59 -29.5 100t-95.5 41t-94.5 -41t-28.5 -100z" />
<glyph unicode="&#xbb;" horiz-adv-x="1703" d="M184 41l398 463l-398 465h322l399 -465l-399 -463h-322zM827 41l400 463l-400 465h324l397 -465l-397 -463h-324z" />
<glyph unicode="&#xbc;" horiz-adv-x="1665" d="M12 1176v127q92 0 144.5 28.5t52.5 77.5h172v-825h-213v592h-156zM141 -8l1026 1528l191 -70l-1030 -1534zM866 135v119l410 573h221v-516h94v-176h-94v-135h-203v135h-428zM1100 311h194v262z" />
<glyph unicode="&#xbd;" horiz-adv-x="1742" d="M12 1176v127q92 0 144.5 28.5t52.5 77.5h172v-825h-213v592h-156zM141 -8l1026 1528l191 -70l-1030 -1534zM979 0v119q0 72 30.5 124t75.5 91t99.5 67.5t99.5 56t76 57.5t31 69q0 37 -25 56t-63 19q-55 0 -72 -19t-27 -46h-213q0 57 23.5 102t65.5 76t99.5 47.5 t123.5 16.5q141 0 221 -65.5t80 -176.5q0 -59 -26 -104.5t-65.5 -80t-87 -64.5t-92.5 -57.5t-79.5 -57t-49.5 -66.5h414v-164h-639z" />
<glyph unicode="&#xbe;" horiz-adv-x="1871" d="M55 809h211q8 -45 46 -63.5t96 -18.5q59 0 98 24.5t39 71.5q0 55 -43 82t-119 27h-43v135h43q66 0 91.5 34t25.5 66q0 39 -33 63.5t-74 24.5q-53 0 -85 -22.5t-32 -58.5h-188q0 115 79 179t228 64q160 0 230.5 -63.5t70.5 -186.5q0 -59 -28.5 -102t-81.5 -68 q61 -23 98 -67.5t37 -104.5q0 -49 -18.5 -96t-57.5 -84t-101.5 -58.5t-148.5 -21.5q-150 0 -244 60.5t-96 183.5zM346 -8l1026 1528l191 -70l-1031 -1534zM1073 135v119l410 573h221v-516h94v-176h-94v-135h-203v135h-428zM1307 311h194v262z" />
<glyph unicode="&#xbf;" horiz-adv-x="1234" d="M137 -43q0 104 57.5 195.5t167.5 177.5q37 27 60.5 48t38 42.5t20.5 45t6 54.5v49h277v-51q0 -84 -25.5 -143.5t-63.5 -102.5t-83 -76.5t-83 -67.5t-63.5 -75t-25.5 -96q0 -86 57.5 -135t161.5 -49q98 0 147.5 50t65.5 142h291q-2 -106 -41 -182t-106.5 -125t-159 -72.5 t-197.5 -23.5q-111 0 -203 26.5t-158.5 76.5t-103.5 124t-37 168zM461 735v271h327v-271h-327z" />
<glyph unicode="&#xc0;" horiz-adv-x="1544" d="M-18 0l663 1419h250l668 -1419h-308l-159 352h-656l-159 -352h-299zM465 1767l188 177l348 -287l-143 -146zM539 567h458l-227 549z" />
<glyph unicode="&#xc1;" horiz-adv-x="1544" d="M-18 0l663 1419h250l668 -1419h-308l-159 352h-656l-159 -352h-299zM539 567h458l-227 549zM547 1653l348 284l188 -176l-389 -256z" />
<glyph unicode="&#xc2;" horiz-adv-x="1544" d="M-18 0l663 1419h250l668 -1419h-308l-159 352h-656l-159 -352h-299zM365 1651l311 241h190l312 -241l-152 -146l-254 191l-248 -191zM539 567h458l-227 549z" />
<glyph unicode="&#xc3;" horiz-adv-x="1544" d="M-18 0l663 1419h250l668 -1419h-308l-159 352h-656l-159 -352h-299zM350 1561q12 68 40 114.5t68 74.5t86 40t95 12q41 0 79 -12t72.5 -25.5t70.5 -26t73 -12.5q20 0 41.5 8.5t46.5 47.5h203q-10 -63 -39 -109.5t-69 -76t-88 -44t-97 -14.5q-39 0 -78 12.5t-77 26.5 t-73.5 26.5t-66.5 12.5q-20 0 -41 -8.5t-47 -46.5h-199zM539 567h458l-227 549z" />
<glyph unicode="&#xc4;" horiz-adv-x="1544" d="M-18 0l663 1419h250l668 -1419h-308l-159 352h-656l-159 -352h-299zM369 1556v254h284v-254h-284zM539 567h458l-227 549zM885 1556v254h289v-254h-289z" />
<glyph unicode="&#xc5;" horiz-adv-x="1544" d="M-18 0l632 1356q-55 35 -91 85t-36 107q0 51 25 95.5t64.5 77t93 52t110.5 19.5q59 0 112.5 -20.5t92.5 -54.5t61.5 -78t22.5 -91q0 -59 -41 -111.5t-100 -84.5l635 -1352h-308l-159 352h-656l-159 -352h-299zM539 567h458l-227 549zM678 1550q0 -35 27.5 -56t66.5 -26 h23q39 4 64.5 29t25.5 53q0 35 -28 60.5t-73 25.5q-47 0 -76.5 -26.5t-29.5 -59.5z" />
<glyph unicode="&#xc6;" horiz-adv-x="2050" d="M-47 0l786 1419h1207v-223h-768v-375h720v-221h-720v-377h790v-223h-1077v352h-447l-192 -352h-299zM551 567h340v660z" />
<glyph unicode="&#xc7;" horiz-adv-x="1499" d="M68 713q0 141 30.5 272t108.5 232.5t213 162t342 60.5q147 0 262 -32t194.5 -91.5t125 -143t57.5 -186.5h-297q-10 45 -36 86t-66.5 73t-96 50t-125.5 18h-32q-117 0 -193 -42t-121 -111.5t-62.5 -159.5t-17.5 -188q0 -92 16.5 -183.5t59.5 -163t120 -116.5t198 -45h28 q76 0 134.5 21.5t98.5 57t63.5 80t31.5 91.5h297q-14 -199 -143.5 -322t-385.5 -145l-34 -80h24q78 0 125 -45t47 -111q0 -86 -55 -127t-160 -41q-72 0 -113.5 28t-64.5 62l109 60q10 -18 26.5 -29.5t42.5 -11.5q33 0 52.5 15.5t19.5 43.5q0 23 -18.5 41.5t-53.5 18.5 t-54.5 -10.5t-31.5 -22.5l-94 53l68 152q-182 8 -305 70.5t-197 162.5t-105.5 228t-31.5 268z" />
<glyph unicode="&#xc8;" d="M150 0v1419h1058v-225h-774v-373h729v-221h-729v-375h795v-225h-1079zM381 1767l188 177l351 -287l-146 -146z" />
<glyph unicode="&#xc9;" d="M150 0v1419h1058v-225h-774v-373h729v-221h-729v-375h795v-225h-1079zM420 1659l381 285l178 -185l-412 -250z" />
<glyph unicode="&#xca;" d="M150 0v1419h1058v-225h-774v-373h729v-221h-729v-375h795v-225h-1079zM283 1647l311 241h190l312 -241l-152 -146l-254 191l-248 -191z" />
<glyph unicode="&#xcb;" d="M150 0v1419h1058v-225h-774v-373h729v-221h-729v-375h795v-225h-1079zM295 1556v254h285v-254h-285zM811 1556v254h287v-254h-287z" />
<glyph unicode="&#xcc;" horiz-adv-x="608" d="M-55 1759l188 176l344 -282l-143 -148zM106 0v1419h285v-1419h-285z" />
<glyph unicode="&#xcd;" horiz-adv-x="614" d="M133 1653l350 284l189 -176l-393 -256zM209 0v1419h285v-1419h-285z" />
<glyph unicode="&#xce;" horiz-adv-x="514" d="M-150 1651l314 241h188l314 -241l-154 -146l-252 191l-250 -191zM106 0v1419h285v-1419h-285z" />
<glyph unicode="&#xcf;" horiz-adv-x="593" d="M-104 1556v254h286v-254h-286zM152 0v1419h284v-1419h-284zM412 1556v254h288v-254h-288z" />
<glyph unicode="&#xd0;" horiz-adv-x="1482" d="M0 616v203h137v600h514q381 0 560.5 -179t179.5 -531q0 -158 -36 -288t-120 -224.5t-223.5 -145.5t-345.5 -51h-529v616h-137zM422 223h244q129 0 214 34t135 96.5t69.5 152.5t19.5 203q0 248 -108.5 367.5t-344.5 119.5h-229v-377h319v-203h-319v-393z" />
<glyph unicode="&#xd1;" horiz-adv-x="1615" d="M150 0v1419h315l717 -1048v1048h284v-1419h-313l-721 1047v-1047h-282zM381 1561q12 68 41 114.5t67.5 74.5t86 40t96.5 12q41 0 77.5 -12t72.5 -25.5t71 -26t74 -12.5q20 0 40.5 8.5t47.5 47.5h200q-10 -63 -38.5 -109.5t-68.5 -76t-88 -44t-97 -14.5q-39 0 -78 12.5 t-77 26.5t-74 26.5t-66 12.5q-20 0 -41 -8.5t-47 -46.5h-199z" />
<glyph unicode="&#xd2;" horiz-adv-x="1527" d="M68 713q0 -145 33.5 -277.5t114.5 -233t214 -160.5t332 -60q201 0 335 60t215 160.5t114.5 232.5t33.5 278q0 141 -30.5 272t-108.5 232.5t-214 162t-345 60.5t-343 -60.5t-212 -162t-108.5 -232.5t-30.5 -272zM352 713q0 98 17.5 187t61.5 156.5t121 108.5t196 41h28 q119 0 197 -41t123 -108.5t62.5 -156.5t17.5 -187q0 -92 -16.5 -182.5t-60.5 -161t-123 -113.5t-202 -43h-26q-123 0 -200 43t-121 113.5t-59.5 161t-15.5 182.5zM442 1767l187 177l352 -287l-147 -146z" />
<glyph unicode="&#xd3;" horiz-adv-x="1527" d="M68 713q0 -145 33.5 -277.5t114.5 -233t214 -160.5t332 -60q201 0 335 60t215 160.5t114.5 232.5t33.5 278q0 141 -30.5 272t-108.5 232.5t-214 162t-345 60.5t-343 -60.5t-212 -162t-108.5 -232.5t-30.5 -272zM352 713q0 98 17.5 188t61.5 159.5t121 111.5t196 42h28 q119 0 197 -42t123 -111.5t62.5 -159.5t17.5 -188q0 -92 -16.5 -183.5t-60.5 -163t-123 -116.5t-202 -45h-26q-123 0 -200 45t-121 116.5t-59.5 163t-15.5 183.5zM514 1657l352 287l189 -177l-396 -256z" />
<glyph unicode="&#xd4;" horiz-adv-x="1527" d="M68 713q0 -145 33.5 -277.5t114.5 -233t214 -160.5t332 -60q201 0 335 60t215 160.5t114.5 232.5t33.5 278q0 141 -30.5 272t-108.5 232.5t-214 162t-345 60.5t-343 -60.5t-212 -162t-108.5 -232.5t-30.5 -272zM352 713q0 98 17.5 188t61.5 159.5t121 111.5t196 42h28 q119 0 197 -42t123 -111.5t62.5 -159.5t17.5 -188q0 -92 -16.5 -183.5t-60.5 -163t-123 -116.5t-202 -45h-26q-123 0 -200 45t-121 116.5t-59.5 163t-15.5 183.5zM369 1663l295 229h192l295 -231l-158 -139l-235 178l-236 -178z" />
<glyph unicode="&#xd5;" horiz-adv-x="1527" d="M68 713q0 -145 33.5 -277.5t114.5 -233t214 -160.5t332 -60q201 0 335 60t215 160.5t114.5 232.5t33.5 278q0 141 -30.5 272t-108.5 232.5t-214 162t-345 60.5t-343 -60.5t-212 -162t-108.5 -232.5t-30.5 -272zM332 1561q12 68 40.5 114.5t67.5 74.5t86 40t97 12 q41 0 78.5 -12t72.5 -25.5t71 -26t73 -12.5q20 0 40.5 8.5t47.5 47.5h200q-10 -63 -37.5 -109.5t-67.5 -76t-88 -44t-98 -14.5q-39 0 -78.5 12.5t-77.5 26.5t-73 26.5t-65 12.5q-23 0 -43.5 -8.5t-47.5 -46.5h-198zM352 713q0 98 17.5 188t61.5 159.5t121 111.5t196 42h28 q119 0 197 -42t123 -111.5t62.5 -159.5t17.5 -188q0 -92 -16.5 -183.5t-60.5 -163t-123 -116.5t-202 -45h-26q-123 0 -200 45t-121 116.5t-59.5 163t-15.5 183.5z" />
<glyph unicode="&#xd6;" horiz-adv-x="1527" d="M68 713q0 -145 33.5 -277.5t114.5 -233t214 -160.5t332 -60q201 0 335 60t215 160.5t114.5 232.5t33.5 278q0 141 -30.5 272t-108.5 232.5t-214 162t-345 60.5t-343 -60.5t-212 -162t-108.5 -232.5t-30.5 -272zM352 713q0 98 17.5 188t61.5 159.5t121 111.5t196 42h28 q119 0 197 -42t123 -111.5t62.5 -159.5t17.5 -188q0 -92 -16.5 -183.5t-60.5 -163t-122 -116.5t-201 -45h-26q-123 0 -200 45t-121 116.5t-60.5 163t-16.5 183.5zM358 1556v254h287v-254h-287zM874 1556v254h289v-254h-289z" />
<glyph unicode="&#xd7;" horiz-adv-x="1263" d="M129 346l317 262l-317 262l186 156l318 -264l311 264l189 -156l-318 -262l320 -264l-193 -151l-311 260l-318 -260z" />
<glyph unicode="&#xd8;" horiz-adv-x="1519" d="M63 713q0 141 31 272t109 232.5t212 162t343 60.5q113 0 203 -19l53 101h258l-96 -181q82 -49 135 -117.5t86 -150.5t46 -174t13 -186q0 -145 -33.5 -277.5t-114.5 -233t-215.5 -160.5t-334.5 -60q-164 0 -287 41l-61 -117h-258l122 229q-117 104 -164 255t-47 323z M348 713q0 -86 13.5 -169t48.5 -153l432 811q-6 2 -19 6q-10 2 -29.5 4t-50.5 2q-119 0 -195.5 -42t-120.5 -111.5t-61.5 -159.5t-17.5 -188zM586 238q35 -12 72.5 -22.5t84.5 -10.5h27q123 0 202 45t123 116.5t60 163t16 183.5q0 117 -26.5 220t-93.5 173z" />
<glyph unicode="&#xd9;" horiz-adv-x="1601" d="M137 586v833h279v-811q0 -80 15 -153.5t58 -131t118 -92t194 -34.5q113 0 186.5 33.5t117.5 90t61.5 131t17.5 156.5v811h280v-833q0 -139 -36.5 -252t-116.5 -192t-205 -120.5t-301 -41.5q-199 0 -328 47t-204.5 130t-105.5 192.5t-30 236.5zM500 1763l186 176l348 -284 l-143 -148z" />
<glyph unicode="&#xda;" horiz-adv-x="1601" d="M137 586v833h279v-811q0 -80 15 -153.5t58 -131t118 -92t194 -34.5q113 0 186.5 33.5t117.5 90t61.5 131t17.5 156.5v811h280v-833q0 -139 -36.5 -252t-116.5 -192t-205 -120.5t-301 -41.5q-199 0 -328 47t-204.5 130t-105.5 192.5t-30 236.5zM557 1655l348 284l191 -176 l-398 -256z" />
<glyph unicode="&#xdb;" horiz-adv-x="1601" d="M137 586v833h279v-811q0 -80 15 -153.5t58 -131t118 -92t194 -34.5q113 0 186.5 33.5t117.5 90t61.5 131t17.5 156.5v811h280v-833q0 -139 -36.5 -252t-116.5 -192t-205 -120.5t-301 -41.5q-199 0 -328 47t-204.5 130t-105.5 192.5t-30 236.5zM410 1663l295 229h190 l295 -231l-156 -139l-237 178l-236 -178z" />
<glyph unicode="&#xdc;" horiz-adv-x="1601" d="M137 586v833h279v-811q0 -80 15 -153.5t58 -131t118 -92t194 -34.5q113 0 186.5 33.5t117.5 90t61.5 131t17.5 156.5v811h280v-833q0 -139 -36.5 -252t-116.5 -192t-205 -120.5t-301 -41.5q-199 0 -328 47t-204.5 130t-105.5 192.5t-30 236.5zM399 1556v254h285v-254 h-285zM915 1556v254h287v-254h-287z" />
<glyph unicode="&#xdd;" horiz-adv-x="1480" d="M-14 1419h325l426 -667l439 667h319l-621 -866v-553h-284v553zM494 1655l352 282l184 -176l-391 -254z" />
<glyph unicode="&#xde;" horiz-adv-x="1343" d="M150 0v1419h284v-252h234q131 0 242.5 -24.5t193.5 -75.5t127 -131t45 -191q0 -119 -49 -199.5t-132 -129.5t-193.5 -70.5t-233.5 -21.5h-234v-324h-284zM434 549h289q137 0 202.5 43t65.5 153q0 49 -22.5 86t-59.5 62t-85 37t-101 12h-289v-393z" />
<glyph unicode="&#xdf;" horiz-adv-x="1515" d="M115 711v194h159v111q0 106 28 187t90.5 134.5t164.5 81t250 27.5q129 0 225 -27.5t159.5 -79t95.5 -121t32 -155.5q0 -74 -43 -136.5t-109 -103.5q127 -49 191.5 -151.5t64.5 -212.5q0 -109 -34.5 -198t-102 -152.5t-167 -97.5t-228.5 -34q-35 0 -90.5 3.5t-141.5 19.5 v209q49 -12 91.5 -19.5t97.5 -7.5q63 0 120.5 16.5t99.5 50.5t66.5 86t24.5 124q0 123 -96 187.5t-256 64.5h-107v194h107q45 0 88 11.5t77 32t53 49t19 65.5q0 78 -54 131t-183 53q-78 0 -127 -18.5t-78 -51t-40 -75.5t-11 -92v-1010h-277v711h-159z" />
<glyph unicode="&#xe0;" horiz-adv-x="1224" d="M76 295q0 80 42 138.5t107.5 97t148.5 58t163 21.5l307 11v45q0 86 -56.5 128t-158.5 42q-88 0 -147.5 -33t-67.5 -88l-273 2q6 63 41 119.5t96.5 98.5t149.5 66.5t201 24.5q137 0 230 -29.5t149.5 -85t80 -133.5t23.5 -172v-456q0 -92 6 -123q4 -20 8 -27h-241 q-4 8 -8 27q-4 16 -6.5 42.5t-2.5 73.5q-20 -37 -56 -66.5t-79 -51t-92 -33.5t-98 -12q-86 0 -169 17t-149.5 54t-107.5 97.5t-41 146.5zM350 291q0 -47 57.5 -79t145.5 -32q63 0 117.5 18.5t93.5 51.5t60.5 74t21.5 88v24l-295 -10q-102 -4 -151.5 -40t-49.5 -95zM393 1411 l223 148l283 -338l-176 -121z" />
<glyph unicode="&#xe1;" horiz-adv-x="1224" d="M76 295q0 80 42 138.5t107.5 97t148.5 58t163 21.5l307 11v45q0 86 -56.5 128t-158.5 42q-88 0 -147.5 -33t-67.5 -88l-273 2q6 63 41 119.5t96.5 98.5t149.5 66.5t201 24.5q137 0 230 -29.5t149.5 -85t80 -133.5t23.5 -172v-456q0 -92 6 -123q4 -20 8 -27h-241 q-4 8 -8 27q-4 16 -6.5 42.5t-2.5 73.5q-20 -37 -56 -66.5t-79 -51t-92 -33.5t-98 -12q-86 0 -169 17t-149.5 54t-107.5 97.5t-41 146.5zM350 291q0 -47 57.5 -79t145.5 -32q63 0 117.5 18.5t93.5 51.5t60.5 74t21.5 88v24l-295 -10q-102 -4 -151.5 -40t-49.5 -95zM457 1241 l280 336l221 -150l-323 -309z" />
<glyph unicode="&#xe2;" horiz-adv-x="1224" d="M76 295q0 80 42 138.5t107.5 97t148.5 58t163 21.5l307 11v45q0 86 -56.5 128t-158.5 42q-88 0 -147.5 -33t-67.5 -88l-273 2q6 63 41 119.5t96.5 98.5t149.5 66.5t201 24.5q137 0 230 -29.5t149.5 -85t80 -133.5t23.5 -172v-456q0 -92 6 -123q4 -20 8 -27h-241 q-4 8 -8 27q-4 16 -6.5 42.5t-2.5 73.5q-20 -37 -56 -66.5t-79 -51t-92 -33.5t-98 -12q-86 0 -169 17t-149.5 54t-107.5 97.5t-41 146.5zM350 291q0 -47 57.5 -79t145.5 -32q63 0 117.5 18.5t93.5 51.5t60.5 74t21.5 88v24l-295 -10q-102 -4 -151.5 -40t-49.5 -95zM358 1194 l217 225h183l213 -227l-152 -100l-153 155l-150 -155z" />
<glyph unicode="&#xe3;" horiz-adv-x="1224" d="M76 295q0 80 42 138.5t107.5 97t148.5 58t163 21.5l307 11v45q0 86 -56.5 128t-158.5 42q-88 0 -147.5 -33t-67.5 -88l-273 2q6 63 41 119.5t96.5 98.5t149.5 66.5t201 24.5q137 0 230 -29.5t149.5 -85t80 -133.5t23.5 -172v-456q0 -92 6 -123q4 -20 8 -27h-241 q-4 8 -8 27q-4 16 -6.5 42.5t-2.5 73.5q-20 -37 -56 -66.5t-79 -51t-92 -33.5t-98 -12q-86 0 -169 17t-149.5 54t-107.5 97.5t-41 146.5zM221 1214q12 70 41 114t68 68.5t86 34t96 9.5q41 0 79 -12.5t72.5 -25.5t70.5 -25.5t73 -12.5q20 0 40.5 8t47.5 47h201 q-10 -63 -38 -107t-68 -71t-88 -38t-97 -11q-41 0 -78 12.5t-73 27.5t-70.5 27.5t-73.5 12.5q-23 0 -43.5 -8.5t-46.5 -49.5h-199zM350 291q0 -47 57.5 -79t145.5 -32q63 0 117.5 18.5t93.5 51.5t60.5 74t21.5 88v24l-295 -10q-102 -4 -151.5 -40t-49.5 -95z" />
<glyph unicode="&#xe4;" horiz-adv-x="1224" d="M76 295q0 80 42 138.5t107.5 97t148.5 58t163 21.5l307 11v45q0 86 -56.5 128t-158.5 42q-88 0 -147.5 -33t-67.5 -88l-273 2q6 63 41 119.5t96.5 98.5t149.5 66.5t201 24.5q137 0 230 -29.5t149.5 -85t80 -133.5t23.5 -172v-456q0 -92 6 -123q4 -20 8 -27h-241 q-4 8 -8 27q-4 16 -6.5 42.5t-2.5 73.5q-20 -37 -56 -66.5t-79 -51t-92 -33.5t-98 -12q-86 0 -169 17t-149.5 54t-107.5 97.5t-41 146.5zM258 1155v254h285v-254h-285zM350 291q0 -47 57.5 -79t145.5 -32q63 0 117.5 18.5t93.5 51.5t60.5 74t21.5 88v24l-295 -10 q-102 -4 -151.5 -40t-49.5 -95zM756 1155v254h286v-254h-286z" />
<glyph unicode="&#xe5;" horiz-adv-x="1224" d="M76 295q0 80 42 138.5t107.5 97t148.5 58t163 21.5l307 11v45q0 86 -56.5 128t-158.5 42q-88 0 -147.5 -33t-67.5 -88l-273 2q6 63 41 119.5t96.5 98.5t149.5 66.5t201 24.5q137 0 230 -29.5t149.5 -85t80 -133.5t23.5 -172v-456q0 -92 6 -123q4 -20 8 -27h-241 q-4 8 -8 27q-4 16 -6.5 42.5t-2.5 73.5q-20 -37 -56 -66.5t-79 -51t-92 -33.5t-98 -12q-86 0 -169 17t-149.5 54t-107.5 97.5t-41 146.5zM350 291q0 -47 57.5 -79t145.5 -32q63 0 117.5 18.5t93.5 51.5t60.5 74t21.5 88v24l-295 -10q-102 -4 -151.5 -40t-49.5 -95zM412 1374 q0 45 20.5 86t56 71t84 47t103.5 17t104 -17t86 -48t57.5 -71t20.5 -85t-21.5 -85t-58.5 -70.5t-85 -48t-103 -17.5t-103.5 17.5t-84 48t-56 70.5t-20.5 85zM573 1372q0 -37 32 -59.5t67 -22.5q45 0 71.5 23.5t26.5 58.5q0 37 -28.5 59.5t-69.5 22.5q-43 0 -71 -23.5 t-28 -58.5z" />
<glyph unicode="&#xe6;" horiz-adv-x="2082" d="M68 295q0 80 42 138.5t107.5 97t148.5 58t162 21.5l308 11v45q0 86 -56.5 128t-158.5 42q-88 0 -147.5 -33t-67.5 -88h-273q6 63 41 119.5t96.5 99.5t149.5 67.5t201 24.5q156 0 252 -40t149 -109q76 72 188.5 109.5t249.5 37.5q123 0 223.5 -33t173 -97.5t111.5 -161.5 t39 -226v-72h-846q8 -53 28.5 -100t57.5 -83t91.5 -56.5t125.5 -20.5q90 0 162 39t98 121h283q-25 -98 -74 -166t-119.5 -110t-159.5 -60t-190 -18q-186 0 -307 60t-186 161q-31 -53 -77 -94t-103.5 -69t-123 -43t-132.5 -15q-86 0 -169 17t-149.5 54t-107.5 97.5t-41 146.5 zM342 295q0 -47 57.5 -82t145.5 -35q63 0 117.5 20.5t93.5 53.5t60.5 76t21.5 90v16l-295 -10q-201 -6 -201 -129zM1167 627h555q-4 43 -26.5 80.5t-57 66.5t-81 45.5t-97.5 16.5q-55 0 -105 -17.5t-90 -46.5t-65.5 -66.5t-32.5 -78.5z" />
<glyph unicode="&#xe7;" horiz-adv-x="1271" d="M78 504q0 117 33.5 212t104.5 163.5t178.5 106.5t256.5 38q98 0 188.5 -22.5t161 -66.5t118.5 -108.5t67 -148.5h-287q-29 72 -95.5 115t-152.5 43q-80 0 -136 -28t-93 -75t-53.5 -107.5t-16.5 -123.5t16.5 -123t53.5 -105t93 -72.5t136 -27.5q113 0 177.5 52.5 t84.5 140.5h281q-29 -170 -146.5 -268.5t-316.5 -114.5l-31 -76h25q76 0 124 -45t48 -111q0 -86 -56.5 -127t-160.5 -41q-72 0 -114 28t-62 62l106 60q12 -18 27.5 -29.5t42.5 -11.5q72 0 72 59q0 23 -18.5 41.5t-53.5 18.5t-54.5 -10.5t-31.5 -22.5l-94 53l67 152 q-242 18 -365.5 152t-123.5 368z" />
<glyph unicode="&#xe8;" horiz-adv-x="1277" d="M78 502q0 133 42 231t116.5 163t181 96.5t235.5 31.5q123 0 224.5 -33t173 -97.5t110.5 -161.5t39 -226v-72h-844q6 -53 24.5 -100t54.5 -83t90.5 -56.5t131.5 -20.5q211 0 261 160h282q-25 -98 -74 -166t-119.5 -110t-159.5 -60t-190 -18q-152 0 -261 39.5t-180 109.5 t-104.5 165t-33.5 208zM360 621h555q-4 43 -24.5 81.5t-54 68.5t-79.5 47.5t-104 17.5q-68 0 -120 -18.5t-88.5 -48.5t-57 -68.5t-27.5 -79.5zM365 1409l225 150l284 -340l-180 -121z" />
<glyph unicode="&#xe9;" horiz-adv-x="1277" d="M78 502q0 133 42 231t116.5 163t181 96.5t235.5 31.5q123 0 224.5 -33t173 -97.5t110.5 -161.5t39 -226v-72h-844q6 -53 24.5 -100t54.5 -83t90.5 -56.5t131.5 -20.5q211 0 261 160h282q-25 -98 -74 -166t-119.5 -110t-159.5 -60t-190 -18q-152 0 -261 39.5t-180 109.5 t-104.5 165t-33.5 208zM360 621h555q-4 43 -24.5 81.5t-54 68.5t-79.5 47.5t-104 17.5q-68 0 -120 -18.5t-88.5 -48.5t-57 -68.5t-27.5 -79.5zM418 1219l287 340l221 -150l-328 -311z" />
<glyph unicode="&#xea;" horiz-adv-x="1277" d="M78 502q0 133 42 231t116.5 163t181 96.5t235.5 31.5q123 0 224.5 -33t173 -97.5t110.5 -161.5t39 -226v-72h-844q6 -53 24.5 -100t54.5 -83t90.5 -56.5t131.5 -20.5q211 0 261 160h282q-25 -98 -74 -166t-119.5 -110t-159.5 -60t-190 -18q-152 0 -261 39.5t-180 109.5 t-104.5 165t-33.5 208zM340 1194l217 225h182l213 -227l-151 -100l-154 155l-149 -155zM360 621h555q-4 43 -24.5 81.5t-54 68.5t-79.5 47.5t-104 17.5q-68 0 -120 -18.5t-88.5 -48.5t-57 -68.5t-27.5 -79.5z" />
<glyph unicode="&#xeb;" horiz-adv-x="1277" d="M78 502q0 133 42 231t116.5 163t181 96.5t235.5 31.5q123 0 224.5 -33t173 -97.5t110.5 -161.5t39 -226v-72h-844q6 -53 24.5 -100t54.5 -83t90.5 -56.5t131.5 -20.5q211 0 261 160h282q-25 -98 -74 -166t-119.5 -110t-159.5 -60t-190 -18q-152 0 -261 39.5t-180 109.5 t-104.5 165t-33.5 208zM272 1155v254h285v-254h-285zM360 621h555q-4 43 -24.5 81.5t-54 68.5t-79.5 47.5t-104 17.5q-68 0 -120 -18.5t-88.5 -48.5t-57 -68.5t-27.5 -79.5zM768 1155v254h289v-254h-289z" />
<glyph unicode="&#xec;" horiz-adv-x="546" d="M-41 1409l223 150l285 -340l-178 -121zM102 0v1006h271v-1006h-271z" />
<glyph unicode="&#xed;" horiz-adv-x="385" d="M-61 1219l286 340l221 -150l-325 -311zM14 0v1006h271v-1006h-271z" />
<glyph unicode="&#xee;" horiz-adv-x="530" d="M-41 1194l217 225h180l215 -227l-153 -100l-152 155l-149 -155zM121 0v1006h270v-1006h-270z" />
<glyph unicode="&#xef;" horiz-adv-x="497" d="M-143 1155v254h284v-254h-284zM102 0v1006h271v-1006h-271zM352 1155v254h289v-254h-289z" />
<glyph unicode="&#xf0;" horiz-adv-x="1236" d="M78 500q0 115 31.5 211t98 166.5t168 110.5t242.5 40q16 0 30 -1t24 -3t20 -2l-57 88h-291v172h186l-100 158h254l98 -158h230v-172h-119q84 -119 136 -215t81 -172t39 -131t10 -92q0 -115 -31.5 -210t-97 -166t-168 -110t-244.5 -39q-147 0 -250.5 42t-168 113t-93 166 t-28.5 204zM354 500q0 -59 14.5 -116.5t46 -102.5t82 -73t121.5 -28q76 0 127.5 31t82 78t44 103.5t13.5 107.5q0 57 -14.5 115.5t-46 103.5t-82 73.5t-124.5 28.5q-78 0 -128 -30.5t-80.5 -77.5t-43 -104.5t-12.5 -108.5z" />
<glyph unicode="&#xf1;" horiz-adv-x="1300" d="M115 0v1006h262v-76q63 61 143 78.5t162 17.5q236 0 370 -88t134 -283v-655h-271v631q0 92 -75.5 142t-188.5 50q-119 0 -192.5 -57t-73.5 -160v-606h-270zM227 1214q12 70 41 114t68 68.5t86 34t96 9.5q41 0 79 -12.5t73 -25.5t70.5 -25.5t72.5 -12.5q20 0 40.5 8 t47.5 47h201q-10 -63 -38 -107t-68 -71t-88 -38t-97 -11q-41 0 -78 12.5t-72.5 27.5t-70.5 27.5t-74 12.5q-23 0 -43 -8.5t-47 -49.5h-199z" />
<glyph unicode="&#xf2;" horiz-adv-x="1300" d="M78 504q0 117 33.5 212t104.5 163.5t179.5 106.5t255.5 38t256 -38t178.5 -106.5t103.5 -163.5t34 -212q0 -252 -142.5 -388t-429.5 -136q-285 0 -429 136t-144 388zM354 502q0 -63 16.5 -123t52.5 -105t92 -72.5t136 -27.5t136.5 27.5t92 72.5t52 104.5t16.5 123.5 q0 63 -16.5 123.5t-52 107.5t-92 75t-136.5 28t-136 -28t-92 -75t-52.5 -107.5t-16.5 -123.5zM381 1409l223 150l285 -340l-178 -121z" />
<glyph unicode="&#xf3;" horiz-adv-x="1300" d="M78 504q0 117 33.5 212t104.5 163.5t179.5 106.5t255.5 38t256 -38t178.5 -106.5t103.5 -163.5t34 -212q0 -252 -142.5 -388t-429.5 -136q-285 0 -429 136t-144 388zM354 502q0 -63 16.5 -123t52.5 -105t92 -72.5t136 -27.5t136.5 27.5t92 72.5t52 104.5t16.5 123.5 q0 63 -16.5 123.5t-52 107.5t-92 75t-136.5 28t-136 -28t-92 -75t-52.5 -107.5t-16.5 -123.5zM424 1219l283 340l221 -150l-326 -311z" />
<glyph unicode="&#xf4;" horiz-adv-x="1300" d="M78 504q0 117 33.5 212t104.5 163.5t179.5 106.5t255.5 38t256 -38t178.5 -106.5t103.5 -163.5t34 -212q0 -252 -142.5 -388t-429.5 -136q-285 0 -429 136t-144 388zM346 1194l217 225h180l215 -227l-153 -100l-152 155l-149 -155zM354 502q0 -63 16.5 -123t52.5 -105 t92 -72.5t136 -27.5t136.5 27.5t92 72.5t52 104.5t16.5 123.5q0 63 -16.5 123.5t-52 107.5t-92 75t-136.5 28t-136 -28t-92 -75t-52.5 -107.5t-16.5 -123.5z" />
<glyph unicode="&#xf5;" horiz-adv-x="1300" d="M78 504q0 117 33.5 212t104.5 163.5t179.5 106.5t255.5 38t256 -38t178.5 -106.5t103.5 -163.5t34 -212q0 -252 -142.5 -388t-429.5 -136q-285 0 -429 136t-144 388zM211 1214q12 70 41 114t67.5 68.5t86 34t96.5 9.5q41 0 77.5 -12.5t72.5 -25.5t71 -25.5t74 -12.5 q20 0 40.5 8t47.5 47h200q-10 -63 -38.5 -107t-68.5 -71t-88 -38t-97 -11q-41 0 -78 12.5t-72 27.5t-70.5 27.5t-74.5 12.5q-20 0 -41 -8.5t-47 -49.5h-199zM354 502q0 -63 16.5 -123t52.5 -105t92 -72.5t136 -27.5t136.5 27.5t92 72.5t52 104.5t16.5 123.5 q0 63 -16.5 123.5t-52 107.5t-92 75t-136.5 28t-136 -28t-92 -75t-52.5 -107.5t-16.5 -123.5z" />
<glyph unicode="&#xf6;" horiz-adv-x="1300" d="M78 504q0 117 33.5 212t104.5 163.5t179.5 106.5t255.5 38t256 -38t178.5 -106.5t103.5 -163.5t34 -212q0 -252 -142.5 -388t-429.5 -136q-285 0 -429 136t-144 388zM264 1155v254h287v-254h-287zM354 502q0 -63 16.5 -123t52.5 -105t92 -72.5t136 -27.5t136.5 27.5 t92 72.5t52 104.5t16.5 123.5q0 63 -16.5 123.5t-52 107.5t-92 75t-136.5 28t-136 -28t-92 -75t-52.5 -107.5t-16.5 -123.5zM762 1155v254h287v-254h-287z" />
<glyph unicode="&#xf7;" horiz-adv-x="1343" d="M96 516v215h1151v-215h-1151zM514 135v266h315v-266h-315zM514 854v268h315v-268h-315z" />
<glyph unicode="&#xf8;" horiz-adv-x="1302" d="M78 504q0 117 33.5 212t104.5 163.5t179.5 106.5t255.5 38q35 0 67 -2t60 -6l37 67h258l-74 -139q117 -66 171.5 -179.5t54.5 -260.5q0 -252 -143.5 -388t-430.5 -136q-88 0 -157 12l-37 -70h-256l80 150q-203 131 -203 432zM354 502q0 -55 11.5 -105.5t37.5 -91.5 l281 526q-6 2 -15.5 2.5t-17.5 0.5q-80 0 -136 -28t-92 -74t-52.5 -106.5t-16.5 -123.5zM592 176q14 -2 28.5 -2h30.5q80 0 136.5 27.5t92 72.5t52 104.5t16.5 123.5q0 63 -15 119.5t-50 101.5z" />
<glyph unicode="&#xf9;" d="M115 350v656h270v-639q0 -45 21.5 -81t58.5 -60.5t86 -38t104 -13.5q119 0 195 57.5t76 159.5v615h270v-1006h-260v98q-57 -63 -146.5 -90.5t-171.5 -27.5q-233 0 -368 88t-135 282zM385 1409l223 145l279 -333l-174 -121z" />
<glyph unicode="&#xfa;" d="M115 350v656h270v-639q0 -45 21.5 -81t58.5 -60.5t86 -38t104 -13.5q119 0 195 57.5t76 159.5v615h270v-1006h-260v98q-57 -63 -146.5 -90.5t-171.5 -27.5q-233 0 -368 88t-135 282zM432 1221l273 331l223 -145l-324 -307z" />
<glyph unicode="&#xfb;" d="M115 350v656h270v-639q0 -45 21.5 -81t58.5 -60.5t86 -38t104 -13.5q119 0 195 57.5t76 159.5v615h270v-1006h-260v98q-57 -63 -146.5 -90.5t-171.5 -27.5q-233 0 -368 88t-135 282zM346 1194l215 225h182l215 -227l-153 -100l-152 155l-149 -155z" />
<glyph unicode="&#xfc;" d="M115 350v656h270v-639q0 -45 21.5 -81t58.5 -60.5t86 -38t104 -13.5q119 0 195 57.5t76 159.5v615h270v-1006h-260v98q-57 -63 -146.5 -90.5t-171.5 -27.5q-233 0 -368 88t-135 282zM248 1155v254h284v-254h-284zM743 1155v254h289v-254h-289z" />
<glyph unicode="&#xfd;" horiz-adv-x="1216" d="M0 1006h287l317 -730l322 730h291l-590 -1166q-25 -47 -53.5 -89t-65.5 -73.5t-85 -50t-114 -18.5q-55 0 -101 7t-97 24v198q27 -6 53 -10q51 -10 98 -10q45 0 77 25.5t54.5 60.5t37.5 71.5t28 61.5zM385 1219l279 335l223 -147l-326 -307z" />
<glyph unicode="&#xfe;" horiz-adv-x="1304" d="M115 -410v1846h266v-502q53 49 126 70.5t157 21.5q150 0 257 -38t177.5 -107.5t104.5 -164.5t34 -212q0 -252 -146.5 -388t-418.5 -136q-72 0 -119 10t-79 25.5t-54.5 36t-40.5 42.5v-504h-264zM377 475q0 -53 17.5 -105.5t52 -93t89 -66.5t128.5 -26q80 0 136 26t93 70 t53.5 101t16.5 121q0 63 -16.5 122.5t-53.5 103.5t-93 70.5t-136 26.5q-72 0 -125.5 -24.5t-88 -66.5t-53 -98t-20.5 -118v-43z" />
<glyph unicode="&#xff;" horiz-adv-x="1216" d="M0 1006h287l317 -730l322 730h291l-590 -1166q-25 -47 -53.5 -89t-65.5 -73.5t-85 -50t-114 -18.5q-55 0 -101 7t-97 24v198q27 -6 53 -10q51 -10 98 -10q45 0 77 25.5t54.5 60.5t37.5 71.5t28 61.5zM213 1155v254h285v-254h-285zM709 1155v254h288v-254h-288z" />
<glyph unicode="&#x152;" horiz-adv-x="2353" d="M68 713q0 141 30.5 272t108.5 232.5t213 162t342 60.5q135 0 237.5 -32t180.5 -91v102h1050v-223h-766v-375h717v-221h-717v-375h787v-225h-1071v104q-74 -57 -178.5 -90.5t-239.5 -33.5q-199 0 -332 60t-214 161.5t-114.5 233.5t-33.5 278zM352 713q0 -92 16.5 -182.5 t59.5 -161t121 -113.5t201 -43h26q123 0 201 43t122 113.5t60.5 161t16.5 182.5q0 96 -17.5 185t-62.5 157.5t-122 109.5t-196 41h-28q-119 0 -196 -41t-122 -109.5t-62.5 -157.5t-17.5 -185z" />
<glyph unicode="&#x153;" horiz-adv-x="2185" d="M78 500q0 117 33.5 212t104.5 163.5t178 106.5t257 38q160 0 271.5 -41t177.5 -133q72 92 192.5 135t268.5 43q123 0 223 -33t173 -97.5t111.5 -161.5t38.5 -226v-72h-845q8 -53 28.5 -99t57 -81t91 -54.5t126.5 -19.5q90 0 161.5 36t98.5 118h282q-25 -98 -73.5 -166 t-119.5 -110t-160 -60t-189 -18q-160 0 -273.5 50t-183.5 126q-72 -82 -185.5 -131.5t-271.5 -49.5q-285 0 -429 136.5t-144 388.5zM352 498q0 -63 16.5 -121t53.5 -102t93 -69.5t136 -25.5t136.5 25.5t92 69.5t52 101.5t16.5 121.5q0 63 -16.5 122.5t-52 103.5t-92 70.5 t-136.5 26.5t-136 -26.5t-93 -70.5t-53.5 -103.5t-16.5 -122.5zM1268 627h555q-4 43 -26.5 78.5t-57.5 61.5t-81 41t-97 15q-55 0 -105.5 -15t-90.5 -42t-65.5 -62.5t-31.5 -76.5z" />
<glyph unicode="&#x178;" horiz-adv-x="1488" d="M-14 1419h319l434 -645l451 645h313l-629 -878v-541h-276v541zM336 1556v254h287v-254h-287zM852 1556v254h289v-254h-289z" />
<glyph unicode="&#x2c6;" horiz-adv-x="626" d="M-102 1090l313 329h215l303 -329h-283l-127 143l-126 -143h-295z" />
<glyph unicode="&#x2dc;" horiz-adv-x="669" d="M-102 1221q12 70 39.5 115.5t66.5 73.5t86 40t94 12q41 0 78 -12t73 -25.5t71.5 -26t72.5 -12.5q23 0 44.5 8.5t47.5 47.5h201q-10 -63 -38.5 -109.5t-68.5 -76t-88.5 -44t-97.5 -14.5q-43 0 -78.5 12.5t-71.5 27.5t-72 27.5t-75 12.5q-20 0 -40.5 -8t-47.5 -49h-196z " />
<glyph unicode="&#x2000;" horiz-adv-x="973" />
<glyph unicode="&#x2001;" horiz-adv-x="1946" />
<glyph unicode="&#x2002;" horiz-adv-x="973" />
<glyph unicode="&#x2003;" horiz-adv-x="1946" />
<glyph unicode="&#x2004;" horiz-adv-x="648" />
<glyph unicode="&#x2005;" horiz-adv-x="486" />
<glyph unicode="&#x2006;" horiz-adv-x="324" />
<glyph unicode="&#x2007;" horiz-adv-x="324" />
<glyph unicode="&#x2008;" horiz-adv-x="243" />
<glyph unicode="&#x2009;" horiz-adv-x="389" />
<glyph unicode="&#x200a;" horiz-adv-x="108" />
<glyph unicode="&#x2010;" horiz-adv-x="972" d="M131 485v213h711v-213h-711z" />
<glyph unicode="&#x2011;" horiz-adv-x="972" d="M131 485v213h711v-213h-711z" />
<glyph unicode="&#x2012;" horiz-adv-x="972" d="M131 485v213h711v-213h-711z" />
<glyph unicode="&#x2013;" horiz-adv-x="1267" d="M0 487v205h1268v-205h-1268z" />
<glyph unicode="&#x2014;" horiz-adv-x="2297" d="M0 487v205h2298v-205h-2298z" />
<glyph unicode="&#x2018;" horiz-adv-x="835" d="M201 1006l196 413h238l-115 -413h-319z" />
<glyph unicode="&#x2019;" horiz-adv-x="841" d="M201 1006l110 413h330l-199 -413h-241z" />
<glyph unicode="&#x201a;" horiz-adv-x="851" d="M201 -193l121 467h329l-211 -467h-239z" />
<glyph unicode="&#x201c;" horiz-adv-x="1196" d="M139 1006l197 413h235l-112 -413h-320zM623 1006l196 413h238l-115 -413h-319z" />
<glyph unicode="&#x201d;" horiz-adv-x="1212" d="M139 1006l111 413h330l-199 -413h-242zM633 1006l110 413h330l-199 -413h-241z" />
<glyph unicode="&#x201e;" horiz-adv-x="1200" d="M139 -193l121 467h330l-213 -467h-238zM610 -193l121 467h330l-211 -467h-240z" />
<glyph unicode="&#x2022;" horiz-adv-x="1767" d="M147 707q0 152 57.5 285.5t158 233t234.5 158t286 58.5t284.5 -58.5t232 -158t157 -233.5t57.5 -285q0 -152 -57.5 -285t-157 -232.5t-232.5 -157t-284 -57.5q-152 0 -286 57.5t-234.5 157t-158 232.5t-57.5 285z" />
<glyph unicode="&#x2026;" horiz-adv-x="1892" d="M182 0v270h326v-270h-326zM782 0v270h326v-270h-326zM1384 0v270h326v-270h-326z" />
<glyph unicode="&#x202f;" horiz-adv-x="389" />
<glyph unicode="&#x2039;" horiz-adv-x="1056" d="M156 504l395 465h326l-400 -465l400 -463h-326z" />
<glyph unicode="&#x203a;" horiz-adv-x="1054" d="M180 41l395 463l-395 465h322l397 -465l-397 -463h-322z" />
<glyph unicode="&#x205f;" horiz-adv-x="486" />
<glyph unicode="&#x20ac;" horiz-adv-x="1519" d="M33 465v176h162v139h-162v178h186q51 236 222 361t464 125q119 0 224.5 -21.5t184.5 -65.5t127 -109.5t54 -151.5h-305q-41 53 -117 81.5t-168 28.5q-137 0 -234.5 -63.5t-135.5 -184.5h563v-178h-594v-139h594v-176h-563q39 -129 135 -188.5t235 -59.5q92 0 170 24.5 t117 84.5h307q-18 -96 -74.5 -162t-136.5 -107t-179 -59t-204 -18q-162 0 -280.5 38.5t-201.5 104t-132 155t-72 187.5h-186z" />
<glyph unicode="&#x2122;" horiz-adv-x="1318" d="M53 1274v145h459v-145h-145v-434h-148v434h-166zM582 840v579h176l119 -334l114 334h176v-579h-149v297l-98 -297h-91l-98 297v-297h-149z" />
<glyph unicode="&#x25fc;" horiz-adv-x="1003" d="M0 0v1004h1004v-1004h-1004z" />
</font>
</defs>
</svg>
